<?xml version="1.0" standalone="no"?>
<!DOCTYPE svg PUBLIC "-//W3C//DTD SVG 1.1//EN" "http://www.w3.org/Graphics/SVG/1.1/DTD/svg11.dtd" >
<!--
2021-6-21: Created with FontForge (http://fontforge.org)
-->
<svg xmlns="http://www.w3.org/2000/svg" xmlns:xlink="http://www.w3.org/1999/xlink" version="1.1">
<metadata>
Created by FontForge 20190801 at Mon Jun 21 10:06:22 2021
 By alexandre

</metadata>
<defs>
<font id="ion" horiz-adv-x="512" >
  <font-face 
    font-family="ion"
    font-weight="400"
    font-stretch="normal"
    units-per-em="512"
    panose-1="2 0 5 9 0 0 0 0 0 0"
    ascent="448"
    descent="-64"
    bbox="27.2368 -31.9632 479.993 415.9"
    underline-thickness="25.6"
    underline-position="-51.2"
    unicode-range="U+F101-F115"
  />
    <missing-glyph />
    <glyph glyph-name="arrow-down-a" unicode="&#xf108;" 
d="M256.5 -0.5l-192 192h112v192h160v-192h112z" />
    <glyph glyph-name="arrow-dropdown" unicode="&#xf10b;" 
d="M128 256h256l-128 -128z" />
    <glyph glyph-name="arrow-swap" unicode="&#xf10a;" 
d="M64 120c0 4.40039 3.59961 8 8 8h248v64l128 -96l-128 -96v64h-248c-4.40039 0 -8 3.59961 -8 8v48zM448 264c0 -4.40039 -3.59961 -8 -8 -8h-248v-64l-128 96l128 96v-64h248c4.40039 0 8 -3.59961 8 -8v-48z" />
    <glyph glyph-name="arrow-up-a" unicode="&#xf109;" 
d="M256.5 383.5l192 -192h-112v-192h-160v192h-112z" />
    <glyph glyph-name="chevron-left" unicode="&#xf106;" 
d="M213.7 192l167.2 -174.2c4.19922 -4.2998 4.09961 -11.3994 -0.200195 -15.7998l-29.9004 -30.5996c-4.2998 -4.40039 -11.2998 -4.5 -15.5 -0.200195l-204.2 212.7c-2.09961 2.19922 -3.09961 5.09961 -3 8.09961c-0.199219 2.90039 0.800781 5.90039 3 8.09961
l204.2 212.601c4.2002 4.2998 11.2002 4.2002 15.5 -0.200195l29.9004 -30.5996c4.2998 -4.40039 4.39941 -11.5 0.200195 -15.8008l-167.2 -174.1v0v0z" />
    <glyph glyph-name="chevron-right" unicode="&#xf107;" 
d="M298.3 192v0v0l-167.2 174.1c-4.19922 4.30078 -4.09961 11.4004 0.200195 15.8008l29.9004 30.5996c4.2998 4.40039 11.2998 4.5 15.5 0.200195l204.2 -212.7c2.19922 -2.2002 3.19922 -5.2002 3 -8.09961c0.0996094 -3 -0.900391 -5.90039 -3 -8.10059l-204.2 -212.6
c-4.2002 -4.2998 -11.2002 -4.2002 -15.5 0.200195l-29.9004 30.5996c-4.2998 4.40039 -4.39941 11.5 -0.200195 15.7998z" />
    <glyph glyph-name="chevron-up" unicode="&#xf105;" 
d="M256 234.3l-174.2 -167.2c-4.2998 -4.19922 -11.3994 -4.09961 -15.7998 0.200195l-30.5996 29.9004c-4.40039 4.2998 -4.5 11.2998 -0.200195 15.5l212.7 204.2c2.19922 2.09961 5.09961 3.09961 8.09961 3c2.90039 0.199219 5.90039 -0.800781 8.09961 -3l212.7 -204.2
c4.2998 -4.2002 4.2002 -11.2002 -0.200195 -15.5l-30.5996 -29.9004c-4.40039 -4.2998 -11.5 -4.39941 -15.7998 -0.200195l-174.2 167.2v0v0z" />
    <glyph glyph-name="close" unicode="&#xf115;" 
d="M405 311.202l-119.202 -119.202l119.202 -119.202l-29.7979 -29.7979l-119.202 119.202l-119.202 -119.202l-29.7979 29.7979l119.202 119.202l-119.202 119.202l29.7979 29.7979l119.202 -119.202l119.202 119.202z" />
    <glyph glyph-name="error" unicode="&#xf110;" 
d="M256 400c114.4 0 208 -93.6006 208 -208s-93.5996 -208 -208 -208s-208 93.6006 -208 208s93.5996 208 208 208zM280 88v40h-48v-40h48zM280 176v128h-48v-128h48z" />
    <glyph glyph-name="film-outline" unicode="&#xf111;" 
d="M56 360h400v-336h-400v336zM128 40v48h-56v-48h56zM128 104v48h-56v-48h56zM128 168v48h-56v-48h56zM128 232v48h-56v-48h56zM128 296v48h-56v-48h56zM368 40v144h-224v-144h224zM368 200v144h-224v-144h224zM440 40v48h-56v-48h56zM440 104v48h-56v-48h56zM440 168v48
h-56v-48h56zM440 232v48h-56v-48h56zM440 296v48h-56v-48h56z" />
    <glyph glyph-name="globe" unicode="&#xf10c;" 
d="M256 400c114.875 0 208 -93.125 208 -208s-93.125 -208 -208 -208c-114.876 0 -208 93.125 -208 208s93.124 208 208 208zM234.451 15.001c6.04297 15.0449 19.9453 28.6484 7.27344 39.1172c-8.17285 6.75 -15.6123 13.6279 -23.1104 21.125
c-2.47461 2.47363 -9.9082 19.7109 -8.35156 22.3916c5.10254 8.78613 5.76367 14.8613 8.12988 24.7236c2.94336 12.2627 -3.33398 15.4434 -13.3828 21.8389c-15.2256 9.68848 -28.9629 22.4844 -43.3213 33.4941c-7.11719 5.45508 -17.4365 10.0986 -20.0195 18.9521
c-2.64062 9.05078 -3.97363 20.2598 -9.40039 28.0781c-13.9277 20.0752 -11.5791 34.9678 -9.93945 58.7627c0.449219 6.52637 -1.30371 15.6572 -2.01367 24.1748c-27.5654 -32.2354 -42.6016 -72.7891 -42.6016 -115.659c0 -47.6221 18.5439 -92.3926 52.2178 -126.067
c28.541 -28.54 65.0557 -46.2061 104.52 -50.9316zM382.067 65.9326c23.0352 23.0381 38.9873 51.2695 46.7686 82.0527c-8.34668 -1.19141 -18.3838 2.22754 -18.3838 2.22754s-21.7363 23.707 -23.5244 44.5723c-1.85645 21.667 0.498047 38.3945 -2.89551 56.8105
c-2.87988 15.624 -19.2803 31.5 -26.6729 46.3018c-6.9209 13.8555 -13.7334 27.7031 -20.2646 41.7451c2.25098 -0.848633 4.90039 -1.40234 6.96484 -2.62305c4.99902 0.636719 9.43066 1.22949 13.4629 1.59082c-22.5381 15.6758 -48.2725 25.8418 -75.5225 29.7998
v-8.33887l3.55273 -9.27734l-13.7783 -12.9951l-8.67578 2.79492l-9.92383 10.2334l-9.94336 11.8008l-14.084 5.66016c-15.7236 -2.36133 -30.9346 -6.78711 -45.3105 -13.1523c0.360352 -2.30762 0.662109 -4.64453 0.662109 -7.13281
c7.17383 2.98926 15.2764 5.04883 22.4502 8.03906c2.96289 1.23438 12.7529 -7.1748 15.6221 -8.96777c-4.0957 -4.70996 -20.5576 -15.4434 -21.3574 -21.3574c-0.316406 -2.33984 6.50586 -6.06348 6.45117 -9.69141
c-0.0878906 -5.74609 -0.173828 -11.4912 -0.259766 -17.2373c3.24414 2.76172 20.0342 20.3672 21.9404 20.8594c12.7256 3.2832 34.3916 -17.7646 36.249 -25.1934c1.8584 -7.42871 -21.6514 -23.6826 -32.6113 -34.0469
c-8.39941 -7.94434 -24.8086 -12.5137 -19.8037 -24.2285c1.62695 -3.80957 10.0508 -20.0156 5.21191 -24.0586c-5.92188 -4.94824 -14.7686 8.97656 -17.3418 12.0938c-8.15332 9.87695 -25.626 6.02539 -37.9082 6.47852c0 -17.4209 -0.757812 -31.1885 14.9229 -42.9971
c15.1943 -11.4434 29.5967 -24.7061 47.0771 -32.3389c12.7637 -5.57129 35.7158 6.53613 47.0205 -1.41699c15.8672 -11.165 29.3066 -21.624 47.1611 -29.375c7.93359 -3.44531 32.418 -19.8828 25.3525 -30.7812c-4.96582 -7.66211 -9.87305 -14.8848 -13.5771 -23.2168
c-3.70703 -8.34375 -12.5957 -18.876 -19.6924 -24.3525c-8.15918 -6.29199 -16.9551 -17.1455 -21.8955 -29.3623c34.8574 6.5957 66.9229 23.4482 92.5566 49.0811z" />
    <glyph glyph-name="link" unicode="&#xf104;" 
d="M256.5 240h-0.5v0h0.5zM368.5 288c44.2002 0 79.5 -35.2998 79.5 -79.5v-32c0 -44.2002 -35.2998 -80.5 -79.5 -80.5h-112c-32.7002 0 -61 19.7998 -73.5996 48c-4.40039 10 -6.90039 21 -6.90039 32.5v31.5h48v-31.5c0 -17.5996 14.9004 -32.5 32.5 -32.5h112
c17.5996 0 31.5 14.9004 31.5 32.5v32c0 17.5996 -13.9004 31.5 -31.5 31.5h-0.5h-16.4004c-5.59961 31 -31.5996 48 -31.5996 48h48.5zM329.6 240c4.10059 -9.59961 6.40039 -20.2998 6.40039 -31.5v-32v-0.5h-48v0.5v32c0 17.5996 -13.9004 31.5 -31.5 31.5h-0.5h-111.5
c-17.5996 0 -32.5 -13.9004 -32.5 -31.5v-32c0 -17.5996 14.9004 -32.5 32.5 -32.5h15.4004c6.2998 -31 32.0996 -48 32.0996 -48h-47.5c-44.2002 0 -80.5 36.2998 -80.5 80.5v32c0 44.2002 36.2998 79.5 80.5 79.5h112c33 0 61 -19.7002 73.0996 -48z" />
    <glyph glyph-name="location" unicode="&#xf10e;" 
d="M256 384c65.9004 0 119.3 -53.7002 119.3 -120c0 -114.6 -119.3 -264 -119.3 -264s-119.3 149.4 -119.3 264c0 66.2998 53.3994 120 119.3 120zM256 205.8c31.2002 0 56.4004 25.4004 56.4004 56.7002c0 31.4004 -25.2002 56.7998 -56.4004 56.7998
c-31.0996 0 -56.4004 -25.5 -56.4004 -56.7998s25.2002 -56.7002 56.4004 -56.7002z" />
    <glyph glyph-name="magnet" unicode="&#xf114;" 
d="M27.7061 117.644h86.2139v-67.7236h-86.2256zM184.326 327c0 -0.199219 0.166992 -0.366211 0.367188 -0.366211c27.7676 0 67.3604 -3.08398 67.3604 -42.7246v-141.625c0 -0.197266 0.163086 -0.362305 0.358398 -0.366211
c28.75 -0.636719 57.4912 0.0107422 86.2236 0c0.208984 -0.000976562 0.366211 0.183594 0.367188 0.364258c0.238281 50.8672 0 101.591 0 150.867c-0.250977 43.4795 -13.5273 70.627 -43.2588 92.6426c-33.1963 25.7178 -71.71 27.2451 -112.575 27.3818
c-40.8711 -0.136719 -79.3877 -1.66406 -112.583 -27.3818c-29.7207 -22.0166 -42.9971 -49.1611 -43.248 -92.6445c0 -49.2715 -0.227539 -99.999 0 -150.876c0.000976562 -0.208984 0.185547 -0.365234 0.367188 -0.365234c28.7324 0.0224609 57.4854 -0.625 86.2236 0
c0.196289 0.00390625 0.358398 0.170898 0.358398 0.366211v141.625c0 39.6406 39.6045 42.7363 67.3604 42.7363c0.200195 0 0.367188 0.166992 0.367188 0.366211s-0.166992 0.366211 -0.367188 0.366211c-27.6299 0 -68.0938 -3.06348 -68.0938 -43.4688v-141.266
c-28.2832 -0.604492 -56.9688 0.0244141 -85.4844 0.0078125c-0.223633 50.5547 0.00195312 101.386 0.00195312 150.508c0.249023 43.3125 13.4043 70.168 42.957 92.0605c32.9863 25.5547 71.2646 27.0957 112.144 27.2324
c40.8623 -0.136719 79.1436 -1.67773 112.13 -27.2324c29.5645 -21.8926 42.7188 -48.7461 42.9678 -92.0625c0 -49.1631 0.238281 -99.6865 0.00195312 -150.495c-28.3008 0.00585938 -56.9746 -0.62793 -85.4844 -0.0078125v141.267
c0 40.4043 -40.4521 43.457 -68.0938 43.457c-0.200195 0 -0.367188 -0.166992 -0.367188 -0.366211zM184.692 327.005c27.7061 0 67.7236 -3.07227 67.7236 -43.1006v-141.615c28.7422 -0.639648 57.4834 0.0117188 86.2256 0c0.232422 50.8633 0 101.586 0 150.854
c-0.255859 43.4033 -13.4746 70.3994 -43.1133 92.3574c-33.0938 25.6348 -71.4932 27.1709 -112.36 27.3105c-40.8672 -0.139648 -79.2666 -1.67578 -112.36 -27.3105c-29.6377 -21.958 -42.8574 -48.9541 -43.1016 -92.3574c0 -49.2686 -0.232422 -99.9912 0 -150.866
c28.7422 0.0234375 57.4834 -0.62793 86.2139 0v141.615c0 40.0293 40.0293 43.1123 67.7236 43.1123zM252.463 117.644h86.2021v-67.7236h-86.2021v67.7236z" />
    <glyph glyph-name="more-vertical" unicode="&#xf113;" 
d="M296 312c0 -22.002 -17.998 -40 -40 -40s-40 17.998 -40 40s17.998 40 40 40s40 -17.998 40 -40zM296 72c0 -22.002 -17.998 -40 -40 -40s-40 17.998 -40 40s17.998 40 40 40s40 -17.998 40 -40zM296 192c0 -22.002 -17.998 -40 -40 -40s-40 17.998 -40 40
s17.998 40 40 40s40 -17.998 40 -40z" />
    <glyph glyph-name="music-note" unicode="&#xf112;" 
d="M426 415.9c12.0996 0 22 -9.5 22.0996 -21.2002v-302.8c0 -24.7002 -3 -42.9004 -12 -54.9004h-0.199219c-9.10059 -15 -25 -21 -43.2002 -21h-37.2002c-28.2998 0 -51.2002 19.9004 -51.2002 48s22.9004 48 51.2002 48h60.5v192l-208 -38v-232
c0 -8.2998 -3.40039 -27 -13 -41.0996c-1 -1.80078 -2.09961 -3.40039 -3.40039 -5c-0.5 -0.600586 -0.899414 -1.5 -1.5 -2.10059c-0.0996094 -0.0996094 -0.299805 -0.0996094 -0.399414 -0.200195c-9.40039 -10.5996 -23 -17.5 -38.2998 -17.5h-36.2002
c-28.2002 0 -51.2998 20 -51.2998 48s23.0996 48 51.0996 48v-0.0996094h61v286.5c1 14.5 13.5 27.9004 27.2998 31.5996l217.601 33.2002s2.89941 0.600586 5.09961 0.600586z" />
    <glyph glyph-name="navicon-round" unicode="&#xf101;" 
d="M417.4 224c16.8994 0 30.5996 -14.2998 30.5996 -32s-13.7002 -32 -30.5996 -32h-322.801c-16.8994 0 -30.5996 14.2998 -30.5996 32s13.7002 32 30.5996 32h322.801zM417.4 352c16.8994 0 30.5996 -14.2998 30.5996 -32s-13.7002 -32 -30.5996 -32h-322.801
c-16.8994 0 -30.5996 14.2998 -30.5996 32s13.7002 32 30.5996 32h322.801zM417.4 96c16.8994 0 30.5996 -14.2998 30.5996 -32s-13.7002 -32 -30.5996 -32h-322.801c-16.8994 0 -30.5996 14.2998 -30.5996 32s13.7002 32 30.5996 32h322.801z" />
    <glyph glyph-name="play" unicode="&#xf103;" 
d="M405.2 215.1c6.59961 -5.59961 10.7998 -13.7998 10.7998 -23.0996s-4.2002 -17.5996 -10.7998 -23.0996l-278.101 -165.5c-3.69922 -2 -7.09961 -3.40039 -11.1992 -3.40039c-10.9004 0 -19.8008 9 -19.8008 20h-0.0996094v344h0.0996094c0 11 8.90039 20 19.8008 20
c4 0 7.5 -1.2002 10.8994 -3.2002z" />
    <glyph glyph-name="search" unicode="&#xf102;" 
d="M445 61.2998c4 -4 4 -10.3994 0 -14.5l-43.2998 -43.7998c-1.90039 -2 -4.60059 -3.09961 -7.2998 -3.09961c-2.7002 0 -5.40039 1.19922 -7.30078 3.09961l-84.3994 85.5996c-24.6006 -14.6992 -52.2002 -22.3994 -80.1006 -22.3994
c-87.3994 0 -158.6 71.2998 -158.6 158.899c0 87.6006 71.2002 158.9 158.6 158.9c87.4004 0 158.601 -71.2998 158.601 -158.9c0 -27 -7.2002 -53.7998 -21 -77.8994zM222.6 322.1c-53.3994 0 -96.7998 -43.5 -96.7998 -97s43.4004 -97 96.7998 -97
c53.4004 0 96.8008 43.5 96.8008 97s-43.4004 97 -96.8008 97z" />
    <glyph glyph-name="time" unicode="&#xf10d;" 
d="M256 405c117.149 0 213 -95.8506 213 -213s-94.7891 -213 -213 -213s-213 95.8506 -213 213s94.7891 213 213 213zM256 21.5996c93.7178 0 170.4 76.6826 170.4 170.4s-76.6826 170.4 -170.4 170.4s-170.4 -76.6836 -170.4 -170.4s76.6826 -170.4 170.4 -170.4z
M266.65 298.5v-111.824l95.8496 -56.4434l-15.9746 -26.625l-111.825 67.0928v127.8h31.9502z" />
    <glyph glyph-name="warning" unicode="&#xf10f;" 
d="M476.7 25.7998c2.7998 -4.89941 4.7998 -13 1.7998 -17.8994c-2.90039 -4.90039 -8.2002 -7.90039 -14 -7.90039h-417.1c-5.80078 0 -11.1006 3 -14 7.90039c-2.90039 4.89941 -0.900391 12.8994 1.89941 17.8994l206.601 349.5c2.7998 5 8.19922 8.7002 14.0996 8.7002
c5.7998 0 11.2002 -3.7002 14.0996 -8.7002zM288 48v48h-64v-48h64zM288 128v144h-64v-144h64z" />
  </font>
</defs>
</svg>
